Quick Browse
Movies
TV shows
Music
Games
Applications
Anime
Other

Latest Articles

epitorrent

Verified torrent Baaghi 2 2018 Hindi 720p HDRip AAC 2.0 x264 [MW]


    Seeders : 109      Leechers : 175


Note :

Please Update (Trackers Info) Before Downloading Torrents to See Updated Seeders And Leechers for Batter Download Speed.

Trackers List

Tracker NameLast CheckStatusSeedersLeechers
udp://tracker.opentrackr.org:1337/announce8 days agosuccess109175
udp://eddie4.nl:6969/announce8 days agosuccess92154
udp://tracker.leechers-paradise.org:6969/announce8 days agosuccess92154
udp://tracker.pirateparty.gr:6969/announce8 days agosuccess91173
udp://tracker.coppersurfer.tk:6969/announce8 days agosuccess91173
udp://public.popcorn-tracker.org:6969/announce8 days agosuccess81144
udp://9.rarbg.me:2710/announce8 days agosuccess80149
udp://9.rarbg.to:2710/announce8 days agosuccess80149
udp://tracker.vanitycore.co:6969/announce8 days agosuccess74130
udp://ipv4.tracker.harry.lu:80/announce8 days agosuccess2060
udp://tracker.mgtracker.org:2710/announce8 days agosuccess1324
udp://mgtracker.org:6969/announce8 days agosuccess00
udp://tracker.sktorrent.net:6969/announce8 days agosuccess00
udp://asnet.pw:2710/announce8 days agosuccess00
http://tracker.opentrackr.org/announce8 days agosuccess00
udp://tracker.zer0day.to:1337/announce8 days agosuccess00
udp://tracker.x4w.co:6969/announce8 days agosuccess00
http://tracker2.wasabii.com.tw:6969/announce8 days agosuccess00
http://tracker.trackerfix.com/announce8 days agosuccess00
http://announce.torrentsmd.com:6969/announce8 days agosuccess00
udp://castradio.net:6969/announce8 days agosuccess00
udp://explodie.org:6969/announce8 days agosuccess00
udp://tracker.internetwarriors.net:1337/announce8 days agosuccess00
udp://tracker.pomf.se:80/announce8 days agosuccess00
udp://tracker.trackerfix.com:80/announce8 days agosuccess00
udp://glotorrents.pw:6969/announce8 days agosuccess00
udp://tracker4.piratux.com:6969/announce8 days agosuccess00
udp://tracker.blackunicorn.xyz:6969/announce8 days agosuccess00
udp://p4p.arenabg.ch:1337/announce8 days agosuccess00
udp://tracker.mg64.net:6881/announce8 days agosuccess00




Torrent File Content (1 file)


Baaghi 2 2018 Hindi 720p HDRip AAC 2.0 x264 [MW]
     Baaghi 2 2018 Hindi 720p HDRip AAC 2.0 x264 [MW].mkv -
1.22 GB



Description




[url=http://pichub.site/image/J3Mlb]
http://pichub.site/images/2018/04/17/MV5BZWMwNzkzNDEtYTI0Ni00NDNiLWIxNDgtYTc0MDcxMzAzYTE2XkEyXkFqcGdeQXVyODE5NzE3OTE._V1_QL50_SY1000_CR006921000_AL_.md.jpg
[/url]


General
Format : Matroska
Format version : Version 4 / Version 2
File size : 1.22 GiB
Duration : 2 h 23 min
Overall bit rate : 1 221 kb/s

Video
ID : 1
Format : AVC
Format/Info : Advanced Video Codec
Format profile : [email protected]
Format settings : CABAC / 4 Ref Frames
Format settings, CABAC : Yes
Format settings, RefFrames : 4 frames
Codec ID : V_MPEG4/ISO/AVC
Duration : 2 h 23 min
Bit rate : 1 100 kb/s
Width : 1 280 pixels
Height : 540 pixels
Display aspect ratio : 2.40:1
Frame rate mode : Constant
Frame rate : 15.000 FPS
Color space : YUV
Chroma subsampling : 4:2:0
Bit depth : 8 bits
Scan type : Progressive
Bits/(Pixel*Frame) : 0.106
Stream size : 1.09 GiB (89%)
Writing library : x264 core 155 r2893 b00bcaf
Default : Yes
Forced : No

Audio
ID : 2
Format : AAC
Format/Info : Advanced Audio Codec
Format profile : LC
Codec ID : A_AAC-2
Duration : 2 h 23 min
Bit rate : 128 kb/s
Channel(s) : 2 channels
Channel positions : Front: L R
Sampling rate : 48.0 kHz
Frame rate : 46.875 FPS (1024 SPF)
Compression mode : Lossy
Stream size : 131 MiB (10%)
Language : Hindi
Default : Yes
Forced : No






[url=http://pichub.site/image/J3JAy]
http://pichub.site/images/2018/04/17/00_09_32.md.jpg
[/url]
[url=http://pichub.site/image/J3OLT]
http://pichub.site/images/2018/04/17/00_14_07.md.jpg
[/url]
[url=http://pichub.site/image/J3a40]
http://pichub.site/images/2018/04/17/00_21_14.md.jpg
[/url]
[url=http://pichub.site/image/J3ICV]
http://pichub.site/images/2018/04/17/00_28_52.md.jpg
[/url]
[url=http://pichub.site/image/J3D7D]
http://pichub.site/images/2018/04/17/00_39_42.md.jpg
[/url]
[url=http://pichub.site/image/J3RQN]
http://pichub.site/images/2018/04/17/01_01_02.md.jpg
[/url]
[url=http://pichub.site/image/J3dZg]
http://pichub.site/images/2018/04/17/01_45_38.md.jpg
[/url]
[url=http://pichub.site/image/J3EGZ]
http://pichub.site/images/2018/04/17/02_08_19.md.jpg
[/url]


Related torrents

Torrent NameAddedSizeSeedLeechHealth
Verified torrent
9 days ago - in Movies1.2 GB914614
8 days ago - in Movies1.45 GB00
Verified torrent
25 days ago - in Movies1.05 GB569
Verified torrent
26 days ago - in Movies1.11 GB1,3671,535
Verified torrent
9 days ago - in Movies1.99 GB3015
Verified torrent
27 days ago - in Movies1.75 GB00



Comments (0 Comments)




Latest Searches