Quick Browse
Movies
TV shows
Music
Games
Applications
Anime
Other

Latest Articles

epitorrent

Verified torrent Dawning Of The Dead 2017 HDRip x264 AAC [MW]


    Seeders : 2      Leechers : 1


Note :

Please Update (Trackers Info) Before Downloading Torrents to See Updated Seeders And Leechers for Batter Download Speed.

Trackers List

Tracker NameLast CheckStatusSeedersLeechers
http://9.rarbg.com:2790/announce8 days agosuccess21
http://9.rarbg.to:2720/announce8 days agosuccess21
http://9.rarbg.me:2740/announce8 days agosuccess21
http://tracker.vanitycore.co:6969/announce8 days agosuccess21
http://public.popcorn-tracker.org:6969/announce8 days agosuccess11




Torrent File Content (1 file)


Dawning Of The Dead 2017 HDRip x264 AAC [MW]
     Dawning Of The Dead 2017 HDRip x264 AAC [MW].mkv -
789.47 MB



Description




[url=http://pichub.site/image/J3cAX]
http://pichub.site/images/2018/04/17/Apocalypse-2017.md.jpg
[/url]


General
Format : Matroska
Format version : Version 4 / Version 2
File size : 789 MiB
Duration : 1 h 43 min
Overall bit rate : 1 063 kb/s

Video
ID : 1
Format : AVC
Format/Info : Advanced Video Codec
Format profile : [email protected]
Format settings : CABAC / 4 Ref Frames
Format settings, CABAC : Yes
Format settings, RefFrames : 4 frames
Codec ID : V_MPEG4/ISO/AVC
Duration : 1 h 43 min
Bit rate : 1 000 kb/s
Width : 720 pixels
Height : 304 pixels
Display aspect ratio : 2.35:1
Frame rate mode : Constant
Frame rate : 23.976 (24000/1001) FPS
Color space : YUV
Chroma subsampling : 4:2:0
Bit depth : 8 bits
Scan type : Progressive
Bits/(Pixel*Frame) : 0.191
Stream size : 742 MiB (94%)
Writing library : x264 core 155 r2893 b00bcaf
Default : Yes
Forced : No

Audio
ID : 2
Format : AAC
Format/Info : Advanced Audio Codec
Format profile : HE-AAC / LC
Format settings : Explicit
Codec ID : A_AAC-2
Duration : 1 h 43 min
Bit rate : 62.7 kb/s
Channel(s) : 2 channels
Channel positions : Front: L R
Sampling rate : 48.0 kHz / 24.0 kHz
Frame rate : 23.438 FPS (1024 SPF)
Compression mode : Lossy
Stream size : 46.5 MiB (6%)
Default : Yes
Forced : No






[url=http://pichub.site/image/J3VOI]
http://pichub.site/images/2018/04/17/00_08_08.md.jpg
[/url]
[url=http://pichub.site/image/J3k68]
http://pichub.site/images/2018/04/17/00_15_58.md.jpg
[/url]
[url=http://pichub.site/image/J3yfJ]
http://pichub.site/images/2018/04/17/00_36_55.md.jpg
[/url]
[url=http://pichub.site/image/J3CC5]
http://pichub.site/images/2018/04/17/00_52_02.md.jpg
[/url]
[url=http://pichub.site/image/J3hrh]
http://pichub.site/images/2018/04/17/01_09_11.md.jpg
[/url]
[url=http://pichub.site/image/J3iQj]
http://pichub.site/images/2018/04/17/01_36_16.md.jpg
[/url]


Related torrents

Torrent NameAddedSizeSeedLeechHealth
9 days ago - in Movies1.41 GB00
9 days ago - in Movies1.41 GB00
9 days ago - in Movies1.41 GB00
9 days ago - in Movies1.41 GB00
9 days ago - in Movies1.41 GB00



Comments (0 Comments)




Latest Searches