Quick Browse
Movies
TV shows
Music
Games
Applications
Anime
Other

Latest Articles

epitorrent

Verified torrent Do You Trust This Computer 2018 720p WEB-DL x264 [MW]


    Seeders : 3      Leechers : 2


Note :

Please Update (Trackers Info) Before Downloading Torrents to See Updated Seeders And Leechers for Batter Download Speed.

Trackers List

Tracker NameLast CheckStatusSeedersLeechers
http://9.rarbg.com:2790/announce8 days agosuccess32
http://9.rarbg.to:2720/announce8 days agosuccess32
http://9.rarbg.me:2740/announce8 days agosuccess32
http://tracker.vanitycore.co:6969/announce8 days agosuccess30
http://public.popcorn-tracker.org:6969/announce8 days agosuccess22




Torrent File Content (1 file)


Do You Trust This Computer 2018 720p WEB-DL x264 [MW]
     Do You Trust This Computer 2018 720p WEB-DL x264 [MW].mkv -
719.29 MB



Description




[url=http://pichub.site/image/JsQLB]
http://pichub.site/images/2018/04/17/MV5BNzA0YWQ1MjAtM2I2OS00NGQ2LWFmZTgtZmJkMjNlNjlmNWI4XkEyXkFqcGdeQXVyODY4Mzk4NTc._V1_QL50_SY1000_CR006741000_AL_.md.jpg
[/url]


General
Format : Matroska
Format version : Version 4 / Version 2
File size : 719 MiB
Duration : 1 h 18 min
Overall bit rate : 1 287 kb/s

Video
ID : 1
Format : AVC
Format/Info : Advanced Video Codec
Format profile : [email protected]
Format settings : CABAC / 4 Ref Frames
Format settings, CABAC : Yes
Format settings, RefFrames : 4 frames
Codec ID : V_MPEG4/ISO/AVC
Duration : 1 h 18 min
Bit rate : 1 200 kb/s
Width : 1 280 pixels
Height : 720 pixels
Display aspect ratio : 16:9
Frame rate mode : Constant
Frame rate : 23.976 (24000/1001) FPS
Color space : YUV
Chroma subsampling : 4:2:0
Bit depth : 8 bits
Scan type : Progressive
Bits/(Pixel*Frame) : 0.054
Stream size : 665 MiB (93%)
Writing library : x264 core 155 r2893 b00bcaf
Default : Yes
Forced : No

Audio
ID : 2
Format : AAC
Format/Info : Advanced Audio Codec
Format profile : HE-AAC / LC
Format settings : Explicit
Codec ID : A_AAC-2
Duration : 1 h 18 min
Bit rate : 96.0 kb/s
Channel(s) : 2 channels
Channel positions : Front: L R
Sampling rate : 48.0 kHz / 24.0 kHz
Frame rate : 23.438 FPS (1024 SPF)
Compression mode : Lossy
Stream size : 52.9 MiB (7%)
Default : Yes
Forced : No






[url=http://pichub.site/image/JsFys]
http://pichub.site/images/2018/04/17/00_21_40.md.jpg
[/url]
[url=http://pichub.site/image/Jsed6]
http://pichub.site/images/2018/04/17/00_26_27.md.jpg
[/url]
[url=http://pichub.site/image/JsWQY]
http://pichub.site/images/2018/04/17/00_30_44.md.jpg
[/url]
[url=http://pichub.site/image/JsqZ4]
http://pichub.site/images/2018/04/17/00_53_12.md.jpg
[/url]
[url=http://pichub.site/image/JsjGt]
http://pichub.site/images/2018/04/17/00_57_21.md.jpg
[/url]
[url=http://pichub.site/image/J3fIp]
http://pichub.site/images/2018/04/17/01_07_31.md.jpg
[/url]


Related torrents

Torrent NameAddedSizeSeedLeechHealth
9 days ago - in Movies1.35 GB63
10 days ago - in Movies2.3 GB00
19 days ago - in Movies2.54 GB33
15 days ago - in TV shows591.97 MB4812
11 days ago - in Movies1.35 GB00
1 Year+ - in TV shows291.46 MB00



Comments (0 Comments)




Latest Searches