Quick Browse
Movies
TV shows
Music
Games
Applications
Anime
Other

Latest Articles

epitorrent

Verified torrent Not Cinderellas Type 2018 HDRip x264 AAC [MW]


    Seeders : 2      Leechers : 1


Note :

Please Update (Trackers Info) Before Downloading Torrents to See Updated Seeders And Leechers for Batter Download Speed.

Trackers List

Tracker NameLast CheckStatusSeedersLeechers
http://9.rarbg.com:2790/announce8 days agosuccess21
http://9.rarbg.to:2720/announce8 days agosuccess21
http://9.rarbg.me:2740/announce8 days agosuccess21
http://public.popcorn-tracker.org:6969/announce8 days agosuccess21
http://tracker.vanitycore.co:6969/announce8 days agosuccess21




Torrent File Content (1 file)


Not Cinderellas Type 2018 HDRip x264 AAC [MW]
     Not Cinderellas Type 2018 HDRip x264 AAC [MW].mkv -
759.14 MB



Description




[url=http://pichub.site/image/J38Nk]
http://pichub.site/images/2018/04/17/MV5BMGEwZWVlZmItMDY0My00M2M1LTg4M2YtYmZmOGJiNWJkODkxXkEyXkFqcGdeQXVyNzMzMjU5NDY._V1_QL50_SY1000_CR007141000_AL_.md.jpg
[/url]



General
Format : Matroska
Format version : Version 4 / Version 2
File size : 759 MiB
Duration : 1 h 37 min
Overall bit rate : 1 094 kb/s

Video
ID : 1
Format : AVC
Format/Info : Advanced Video Codec
Format profile : [email protected]
Format settings : CABAC / 4 Ref Frames
Format settings, CABAC : Yes
Format settings, RefFrames : 4 frames
Codec ID : V_MPEG4/ISO/AVC
Duration : 1 h 37 min
Bit rate : 1 000 kb/s
Width : 720 pixels
Height : 400 pixels
Display aspect ratio : 16:9
Frame rate mode : Constant
Frame rate : 23.976 (24000/1001) FPS
Color space : YUV
Chroma subsampling : 4:2:0
Bit depth : 8 bits
Scan type : Progressive
Bits/(Pixel*Frame) : 0.145
Stream size : 692 MiB (91%)
Writing library : x264 core 155 r2893 b00bcaf
Default : Yes
Forced : No

Audio
ID : 2
Format : AAC
Format/Info : Advanced Audio Codec
Format profile : HE-AAC / LC
Format settings : Explicit
Codec ID : A_AAC-2
Duration : 1 h 37 min
Bit rate : 96.0 kb/s
Channel(s) : 2 channels
Channel positions : Front: L R
Sampling rate : 48.0 kHz / 24.0 kHz
Frame rate : 23.438 FPS (1024 SPF)
Compression mode : Lossy
Stream size : 65.7 MiB (9%)
Default : Yes
Forced : No





[url=http://pichub.site/image/J3z7r]
http://pichub.site/images/2018/04/17/00_08_50.md.jpg
[/url]
[url=http://pichub.site/image/J3AZQ]
http://pichub.site/images/2018/04/17/00_14_49.md.jpg
[/url]
[url=http://pichub.site/image/J3gBd]
http://pichub.site/images/2018/04/17/00_27_27.md.jpg
[/url]
[url=http://pichub.site/image/J3KOv]
http://pichub.site/images/2018/04/17/00_39_00.md.jpg
[/url]
[url=http://pichub.site/image/J3m69]
http://pichub.site/images/2018/04/17/00_58_52.md.jpg
[/url]
[url=http://pichub.site/image/J3Gfu]
http://pichub.site/images/2018/04/17/01_19_17.md.jpg
[/url]


Related torrents

Torrent NameAddedSizeSeedLeechHealth
9 days ago - in Movies1.39 GB108
9 days ago - in Movies1.39 GB2724
9 days ago - in Movies1.39 GB1639
9 days ago - in Movies705.97 MB00
Last Month - in Movies5.98 GB00
Last Month - in Movies525.74 MB60



Comments (0 Comments)




Latest Searches