Quick Browse
Movies
TV shows
Music
Games
Applications
Anime
Other

Latest Articles

epitorrent

Verified torrent Rideshare 2018 HDRip x264 AAC [MW]


    Seeders : 10      Leechers : 6


Note :

Please Update (Trackers Info) Before Downloading Torrents to See Updated Seeders And Leechers for Batter Download Speed.

Trackers List

Tracker NameLast CheckStatusSeedersLeechers
udp://tracker.pirateparty.gr:6969/announce8 days agosuccess106
udp://tracker.coppersurfer.tk:6969/announce8 days agosuccess106
udp://tracker.vanitycore.co:6969/announce8 days agosuccess94
udp://tracker.opentrackr.org:1337/announce8 days agosuccess83
udp://tracker.leechers-paradise.org:6969/announce8 days agosuccess84
udp://public.popcorn-tracker.org:6969/announce8 days agosuccess84
udp://eddie4.nl:6969/announce8 days agosuccess84
udp://9.rarbg.me:2710/announce8 days agosuccess75
udp://9.rarbg.to:2710/announce8 days agosuccess75
udp://ipv4.tracker.harry.lu:80/announce8 days agosuccess30
udp://tracker.sktorrent.net:6969/announce8 days agosuccess00
udp://mgtracker.org:6969/announce8 days agosuccess01
udp://tracker.mgtracker.org:2710/announce8 days agosuccess01
udp://asnet.pw:2710/announce8 days agosuccess00
http://tracker.opentrackr.org/announce8 days agosuccess00
udp://tracker.zer0day.to:1337/announce8 days agosuccess00
udp://tracker.x4w.co:6969/announce8 days agosuccess00
http://tracker2.wasabii.com.tw:6969/announce8 days agosuccess00
http://tracker.trackerfix.com/announce8 days agosuccess00
http://announce.torrentsmd.com:6969/announce8 days agosuccess00
udp://castradio.net:6969/announce8 days agosuccess00
udp://explodie.org:6969/announce8 days agosuccess00
udp://tracker.internetwarriors.net:1337/announce8 days agosuccess00
udp://tracker.pomf.se:80/announce8 days agosuccess00
udp://tracker.trackerfix.com:80/announce8 days agosuccess00
udp://glotorrents.pw:6969/announce8 days agosuccess00
udp://tracker4.piratux.com:6969/announce8 days agosuccess00
udp://tracker.blackunicorn.xyz:6969/announce8 days agosuccess00
udp://p4p.arenabg.ch:1337/announce8 days agosuccess00
udp://tracker.mg64.net:6881/announce8 days agosuccess00




Torrent File Content (1 file)


Rideshare 2018 HDRip x264 AAC [MW]
     Rideshare 2018 HDRip x264 AAC [MW].mkv -
773.64 MB



Description




[url=http://pichub.site/image/JsnuQ]
http://pichub.site/images/2018/04/17/MV5BY2Q3ZDM2MmItZjk1YS00MGM3LThmOTktYmM4M2ZmZGRiZTEyXkEyXkFqcGdeQXVyNzIzNDM3NTI._V1_QL50_SY1000_CR006581000_AL_.md.jpg
[/url]


General
Format : Matroska
Format version : Version 4 / Version 2
File size : 774 MiB
Duration : 1 h 42 min
Overall bit rate : 1 059 kb/s

Video
ID : 1
Format : AVC
Format/Info : Advanced Video Codec
Format profile : [email protected]
Format settings : CABAC / 4 Ref Frames
Format settings, CABAC : Yes
Format settings, RefFrames : 4 frames
Codec ID : V_MPEG4/ISO/AVC
Duration : 1 h 42 min
Bit rate : 1 000 kb/s
Width : 714 pixels
Height : 304 pixels
Display aspect ratio : 2.35:1
Frame rate mode : Constant
Frame rate : 23.976 (24000/1001) FPS
Color space : YUV
Chroma subsampling : 4:2:0
Bit depth : 8 bits
Scan type : Progressive
Bits/(Pixel*Frame) : 0.192
Stream size : 727 MiB (94%)
Writing library : x264 core 155 r2893 b00bcaf
Default : Yes
Forced : No

Audio
ID : 2
Format : AAC
Format/Info : Advanced Audio Codec
Format profile : HE-AAC / LC
Format settings : Explicit
Codec ID : A_AAC-2
Duration : 1 h 42 min
Bit rate : 62.7 kb/s
Channel(s) : 2 channels
Channel positions : Front: L R
Sampling rate : 48.0 kHz / 24.0 kHz
Frame rate : 23.438 FPS (1024 SPF)
Compression mode : Lossy
Stream size : 45.8 MiB (6%)
Default : Yes
Forced : No






[url=http://pichub.site/image/JsXdk]
http://pichub.site/images/2018/04/17/00_17_18.md.jpg
[/url]
[url=http://pichub.site/image/Jss3v]
http://pichub.site/images/2018/04/17/00_34_12.md.jpg
[/url]
[url=http://pichub.site/image/Js189]
http://pichub.site/images/2018/04/17/00_42_27.md.jpg
[/url]
[url=http://pichub.site/image/JsZId]
http://pichub.site/images/2018/04/17/00_57_08.md.jpg
[/url]
[url=http://pichub.site/image/Js9lu]
http://pichub.site/images/2018/04/17/01_05_13.md.jpg
[/url]
[url=http://pichub.site/image/JsT4R]
http://pichub.site/images/2018/04/17/01_31_05.md.jpg
[/url]


Related torrents

Torrent NameAddedSizeSeedLeechHealth
Verified torrent
10 days ago - in Movies704.86 MB22
Verified torrent
18 days ago - in Movies771.57 MB00
Verified torrent
22 days ago - in Movies925.93 MB13
Verified torrent
Last Month - in Movies811.44 MB00
Verified torrent
Last Month - in Movies888.99 MB00



Comments (0 Comments)




Latest Searches